[MasterClass.com] Джимми Чин учит экстремальной фотографии / Jimmy Chin Teaches Adventure Photography [2018, 2018, DVDRip, ENG] (Видеоурок)

Страницы:  1

Ответить
Автор
Сообщение

TongJ

Стаж: 1 год 1 месяц

Сообщений: 135


TongJ · 23-Фев-19 20:06 (4 месяца 22 дня назад)

Джимми Чин учит экстремальной фотографии / Jimmy Chin Teaches Adventure Photography
Автор: MasterClass.com
Страна: США
Тематика: 2018
Тип раздаваемого материала: Видеоурок
Продолжительность: 04:10:45
Год выпуска: 2018
Язык: Английский
Перевод: Отсутствует
Ссылка на видеокурс на сайте производителя: https://www.masterclass.com/classes/jimmy-chin-teaches-adventure-photography
Описание: Джимми Чин построил свою карьеру, делая фотографии на немыслимых вершинах мира, которые обеспечили ему обложку в National Geographic и множество наград. Теперь он проведет вас на свои съемки, чтобы научить создавать захватывающие снимки. Узнайте о его различных креативных подходах для рекламной съемки, журнальных разворотов и невероятных проектов. Найдите для себя новые инструменты и опыт, чтобы поднять уровень ваших фотографий на новую высоту.
Содержание курса
01.On Location: Climbing Photoshoot
Meet your new instructor—world-renowned photographer Jimmy Chin—and join him on location for a photoshoot with his climber friends Conrad Anker and Bree Buckley.
02.On Location: Portraits and Natural Light
The photoshoot continues as Jimmy leads you through an outdoor portrait session with Conrad and teaches you how he thinks about using natural light.
03.Capturing Your Passions
Learn Jimmy’s philosophy for finding your voice as a photographer, evolving creatively, and learning from failure.
04.Principles of Narrative: Concept, Research, and Pitch
With a focus on editorial photography, Jimmy teaches you how to construct a photo narrative to win magazine clients and tell a compelling story.
05.Principles of Narrative: The Shoot and the Edit
Now that you have a clear, powerful story in mind, Jimmy explains the core tenets of working with your editor and subjects to bring that story to life.
06.Photo Studies: Shooting at the Top
Join Jimmy as he breaks down two sky-high photoshoots from his career: one from the top of the tallest building in the United States, the other from the peak of the tallest mountain in the world.
07.Commercial Work: Pitching and Working With Clients
Learn Jimmy's strategy for winning commercial clients, executing effective work, and integrating your creative voice into brand campaigns.
08.Commercial Case Study: Canon Shoot
Analyzing photos and exclusive behind-the-scenes footage from a high-alpine photoshoot, Jimmy teaches his approach to leading a team and composing shots in the mountains.
09.High-Stakes Photography
Learn Jimmy’s set of practical directives for safely and constructively running a creative shoot when the stakes are high.
10.Photo Studies: Creative Partnerships
In this chapter, featuring an interview with renowned mountaineer Conrad Anker, Jimmy breaks down how creative relationships fuel his photography, and explores the importance of forging partnerships with those who push you to greater heights.
11.Building and Leading a Team
A photographer is often the creative leader of a team. Jimmy teaches you how to set the bar high for professionalism and convey your creative vision, and lets you in on the preproduction meeting for the on-location shoots earlier in the class.
12.Photo Studies: Mountain Architecture
Jimmy breaks down his approach to photographing mountain landscapes, and how he composes his shots.
13.Editing
Using the photos captured on the shoot with Conrad, Jimmy teaches you his process for sifting through hundreds of images to find the best few for his narrative.
14.Post-Processing: Conrad on the Wall
Jimmy takes you through a granular look at the tweaks he makes to a photo before presenting it to a commercial or editorial client.
15.Post-Processing: Portrait
Learn Jimmy’s techniques for retouching portraits as he moves through wide shots of Conrad against the horizon to portraits of him atop the wall.
16.Gear: Cameras, Lenses, Power, and Storage
Jimmy describes which cameras, lenses, and accessories he takes with him on shoots—and why.
17.Settings: Modes, ISO, Focus, and Depth of Field
Get the most out of your camera's functions and lenses. Jimmy dives into how different settings have different effects, and shares practical tips for determining which configuration will help you get the best shot.
18.Career Advice: Building a Body of Work
Building a career takes tenacity and patience. Learn Jimmy's philosophy behind a life in photography--and how hard work, passion, and perseverance can lead to success.
19.Becoming a Photographer: Jimmy's Story
From his childhood in Mankato, Minnesota to the cover of National Geographic, Jimmy shares his story of becoming a professional photographer and offers advice for finding your own mentors.
20.Conclusion: Be Present on Your Journey
Jimmy wraps up his MasterClass with a few encouraging words on the importance of valuing the process over the final achievement, living in the moment, and pursuing your passion.
Ссылки на другие раздачи с MasterClass.com:
https://rutracker.org/forum/tracker.php?f=1552,1568,615&nm=MasterClass



Качество: DVDRip
Формат: MP4
Видео кодек: H.264
Аудио кодек: AAC
Видео: AVC, 1280x720, 16:9, 1629 kb/s, 24fps
Аудио: AAC, 184 kb/s, 48kHz, 2 channels
MediaInfo
General
Complete name : MasterClass - Jimmy Chin Teaches Adventure Photography\01.On Location Climbing Photoshoot.mp4
Format : MPEG-4
Format profile : Base Media
Codec ID : isom (isom/iso2/avc1/mp41)
File size : 222 MiB
Duration : 17 min 2 s
Overall bit rate : 1 820 kb/s
Writing application : Lavf57.72.101
Video
ID : 1
Format : AVC
Format/Info : Advanced Video Codec
Format profile : Main@L3.1
Format settings, CABAC : Yes
Format settings, ReFrames : 4 frames
Codec ID : avc1
Codec ID/Info : Advanced Video Coding
Duration : 17 min 2 s
Bit rate : 1 630 kb/s
Width : 1 280 pixels
Height : 720 pixels
Display aspect ratio : 16:9
Frame rate mode : Constant
Frame rate : 24.000 FPS
Color space : YUV
Chroma subsampling : 4:2:0
Bit depth : 8 bits
Scan type : Progressive
Bits/(Pixel*Frame) : 0.074
Stream size : 199 MiB (90%)
Writing library : Zencoder Video Encoding System
Color range : Limited
Color primaries : BT.709
Transfer characteristics : BT.709
Matrix coefficients : BT.709
Audio
ID : 2
Format : AAC
Format/Info : Advanced Audio Codec
Format profile : LC
Codec ID : 40
Duration : 17 min 2 s
Duration_LastFrame : 1 ms
Bit rate mode : Constant
Bit rate : 185 kb/s
Channel(s) : 2 channels
Channel positions : Front: L R
Sampling rate : 48.0 kHz
Frame rate : 46.875 FPS (1024 spf)
Compression mode : Lossy
Stream size : 22.5 MiB (10%)
Default : Yes
Alternate group : 1
Скриншоты
Download
Для скачивания .torrent файлов необходима регистрация
Сайт не распространяет и не хранит электронные версии произведений, а лишь предоставляет доступ к создаваемому пользователями каталогу ссылок на торрент-файлы, которые содержат только списки хеш-сумм
[Профиль]  [ЛС] 

yatsan86

Стаж: 9 лет 6 месяцев

Сообщений: 54

yatsan86 · 06-Июл-19 05:58 (спустя 4 месяца 10 дней)

Материал классный! Только один нюанс - ссылки в pdf файлах нерабочие. Есть возможность как-то это исправить или на курсе так и выдавались эти материалы?
[Профиль]  [ЛС] 

TongJ

Стаж: 1 год 1 месяц

Сообщений: 135


TongJ · 06-Июл-19 07:58 (спустя 1 час 59 мин.)

yatsan86
as is
[Профиль]  [ЛС] 
 
Ответить
Loading...
Error