Пирог С. - Эффекты и возможности Sony Vegas [2010-2011, DOC/PDF, RUS] Обновлено: октябрь 2011

Страницы :   Пред.  1, 2, 3, 4, 5, 6, 7
Ответить
Автор
Сообщение

zhanna_kiev

Стаж: 7 лет 8 месяцев

Сообщений: 7


zhanna_kiev · 05-Фев-13 10:04 (6 лет 6 месяцев назад)

Здравствуйте,Сергей! Помогите разобраться,а то я совсем запуталась в разных вычислениях и таблицах. Итак: имеются разные исходники - AVI - 720х400 16:9 нижнее поле, VOB - 720х576 16:9 верхнее поле, Mp4- 640х360 16:9 прогресивная. Как правильно выставить настройки проекта,чтобы на выходе получить единый исходник с аспектом 16:9,который в последствии можно передать ТВ каналу для дальнейшего показа по ТВ. Ну,с Мp4 мне понятно,что необходимо сделать картинку в картинке оставив исходный размер,чтобы сохранить качество. А вот что делать с остальным? Одни пишут,что размер проекта должен быть 720х405,чтобы на выходе было16:9 (но читала,что нечётное число это не правильно). Другие 720х432 (стандарт). Третьи 720х404. У исходника почему-то 720х400. Я совсем запуталась! А ещё мне необходимо на одном из исходников 720х576 (16:9) обрезать сверху остатки логотипа канала (значит уже не будет 720х432). Помогите,пожалуйста разобраться. Что мне выставить в настройках проекта? С уважением, Жанна.
[Профиль]  [ЛС] 

Сергей Пирог

Стаж: 9 лет 4 месяца

Сообщений: 913

Сергей Пирог · 05-Фев-13 11:54 (спустя 1 час 49 мин.)

720х400 это не 16 к 9, а приблизительно 17 к 9, то есть соотношение 1,8 даже при калькуляторном разделении этих двух циферок. Если нужно на ТВ передать будет все это, то подгоняйте картинку под 16-9 или же соотношение 1,7. Смотрим таблицу: ближайшее значение (точное или близкое к тому будет 720 416 (1,7) в бОльшую сторону или 704 496 (1,7) в меньшую. Пан/кропом удаляем лишнее, куцую картинку получаем в любом случае. Не проще ли вертеться от стандартных, уже всунутых заботливыми создатели Соньки?
Разберем то, что вы написали (то есть поведали нам).
размер проекта должен быть 720х405 - бред
читала,что нечётное число это не правильно - верно
Другие 720х432 - нормально, только правильнее 720 416 1,7 вместо 720 432 1,6
720 404 1,8 допустимо, смотрится практически как 1,7
У исходника 720х400 - вот и крутитесь от него. Или делайте апскейл до 720 416 или уменьшайте, что более приемлемо, но резать края полюбасу придется!
ещё мне необходимо на одном из исходников 720х576 (16:9) - ой ли? Берем калькулятор, считаем, получаем 720 576 1,25 - даже не рядом с 16 к 9, может там пиксель pixel ratio не равен 1?
обрезать сверху остатки логотипа канала - это нужно всегда делать!
А еще лучше, если вы пришлете ссылки на раздачи, которые собираетесь юзать. Если это частное видео, то тех данные: разрешение, fps, битрейт
И задайте себе вопрос: сможете ли вы осилить сложный проект, в котором много исходников? Не будет ли проблем с блендингом? Как ролик закодировать, чтобы меньше было пропущенных кадров и может ли кодер пользоваться промежуточными фреймами? Вот пример распупоченного из-за множества исходников ролика, не рекомендуется так делать никому, кто не делал ничего подобного раньше.
[Профиль]  [ЛС] 

zhanna_kiev

Стаж: 7 лет 8 месяцев

Сообщений: 7


zhanna_kiev · 05-Фев-13 14:10 (спустя 2 часа 16 мин., ред. 05-Фев-13 14:10)

720х576 (16:9) это VOB файл с DVD диска (как мы знаем на DVD дисках 16:9 записан 720х576 с чёрными полосками) с верхними полями развёрстки. Когда пробовала в Дубе обрезать эти полоски,а заодно логотип,и сохранить в соотношении 16:9 размер получается не точный. Если его подгонять под 720х432,то немного страдает качество (появляется небольшая зернистость). Что касаемо разных исходников,с разными параметрами,то как меня учили сначала сохранить по отдельности файлы с единым разрешением и параметрами в прогрессивной развёрстке без сжатия,а затем монтировать их (поменяв в свойствах файла,скажем на верхнее поле) и сохраняя в стандартных параметрах Сони Вегас,скажем в AVI,из которого потом для ТВ сделать DVD. Или это не верное решение. Меня волнует именно то,чтобы в свойствах проекта я выбрала то соотношение сторон и аспект,которое будет подходить по стандартам для телеканала. Скажем,привести все исходники к размеру 720 х 400,или лучше 720х404? А затем на выходе сохранить всё в стандарте DV PAL standart 16:9 (или сразу сохранять в MPEG2). По поводу прислать ссылки,то я уже и не помню откуда они были скачены. Скажем видео с разрешением 720х400 с французского торрента (фильм,который шёл по ТВ Франции). Главное,что все исходники в PAL 25fps битрейт немного разный. Но если всё привести к общему знаменателю перед монтажём,то мне кажется проблем быть не должно. Или я не права?
Вот видео характеристики файлов:
Общее
Полное имя : E:\UTorrent Temp\Далида\Disk2\VTS_01_4.VOB
Формат : MPEG-PS
Размер файла : 471 Мбайт
Продолжительность : 12 м.
Режим общего битрейта : Переменный
Общий поток : 5219 Кбит/сек
Видео
Идентификатор : 224 (0xE0)
Формат : MPEG Video
Версия формата : Version 2
Профиль формата : Main@Main
Параметр BVOP формата : Да
Параметр матрицы формата : Выборочная
Параметр GOP формата : M=3, N=12
Продолжительность : 12 м.
Вид битрейта : Переменный
Битрейт : 4731 Кбит/сек
Максимальный битрейт : 8860 Кбит/сек
Ширина : 720 пикселей
Высота : 576 пикселей
Соотношение сторон : 4:3
Частота кадров : 25,000 кадров/сек
Стандарт вещания : PAL
Цветовое пространство : YUV
Субдискретизация насыщенности : 4:2:0
Битовая глубина : 8 бит
Тип развёртки : Чересстрочная
Порядок развёртки : Верхнее поле первое
Метод сжатия : С потерями
Бит/(Пиксели*Кадры) : 0.456
Размер потока : 426 Мбайт (91%)
------------------------------------------------
Общее
Полное имя : E:\Dalida - Quand l'amour s'en va\DALIDA - VIDEO (org.)\DALIDA - DOCO Film (TV)\DALIDA - Emission speciale\AVI\Nous nous sommes tant aimes(2010) - Dalida, Joe Dassin, Mike Brant & Claude François french by kiwiloup.avi
Формат : AVI
Формат/Информация : Audio Video Interleave
Размер файла : 685 Мбайт
Продолжительность : 1 ч. 49 м.
Общий поток : 873 Кбит/сек
Библиотека кодирования : VirtualDub-MPEG2 Fr build 24587/release
Видео
Идентификатор : 0
Формат : MPEG-4 Visual
Профиль формата : Advanced Simple@L5
Параметр BVOP формата : 2
Параметр QPel формата : Нет
Параметр GMC формата : Без точки перехода
Параметр матрицы формата : Default (H.263)
Режим смешивания : Сжатый битовый поток
Идентификатор кодека : XVID
Идентификатор кодека/Подсказка : XviD
Продолжительность : 1 ч. 49 м.
Битрейт : 672 Кбит/сек
Ширина : 720 пикселей
Высота : 400 пикселей
Соотношение сторон : 16:9
Частота кадров : 25,000 кадров/сек
Цветовое пространство : YUV
Субдискретизация насыщенности : 4:2:0
Битовая глубина : 8 бит
Тип развёртки : Прогрессивная
Метод сжатия : С потерями
Бит/(Пиксели*Кадры) : 0.093
Размер потока : 527 Мбайт (77%)
Библиотека кодирования : XviD 1.2.1 (UTC 2008-12-04)
-------------------------------------------------------------------------------
Общее
Идентификатор : 1 (0x1)
Полное имя : E:\UTorrent Temp\Далида - По лезвию славы_ts.ts
Формат : MPEG-TS
Размер файла : 1,66 Гбайт
Продолжительность : 51 м.
Режим общего битрейта : Переменный
Общий поток : 4588 Кбит/сек
Видео
Идентификатор : 167 (0xA7)
Идентификатор меню : 1 (0x1)
Формат : MPEG Video
Версия формата : Version 2
Профиль формата : Main@Main
Параметр BVOP формата : Да
Параметр матрицы формата : Выборочная
Параметр GOP формата : M=3, N=12
Идентификатор кодека : 2
Продолжительность : 51 м.
Вид битрейта : Переменный
Битрейт : 4167 Кбит/сек
Максимальный битрейт : 15,0 Мбит/сек
Ширина : 720 пикселей
Высота : 576 пикселей
Соотношение сторон : 4:3
Частота кадров : 25,000 кадров/сек
Стандарт вещания : PAL
Цветовое пространство : YUV
Субдискретизация насыщенности : 4:2:0
Битовая глубина : 8 бит
Тип развёртки : Чересстрочная
Порядок развёртки : Верхнее поле первое
Метод сжатия : С потерями
Бит/(Пиксели*Кадры) : 0.402
Размер потока : 1,51 Гбайт (91%)
===================
[Профиль]  [ЛС] 

Сергей Пирог

Стаж: 9 лет 4 месяца

Сообщений: 913

Сергей Пирог · 05-Фев-13 17:06 (спустя 2 часа 56 мин.)

Ужос! Целую портянку читать и кучу безполезных рассуждений перед нею! Вы можете написать точно и конкретно по вопросу: разрешение, fps, битрейт? Все это уместиться в ТРЕХ строчках для трех разных файлов.
Пока будете делать столь тяжелый труд, попробуйте еще и сами найти общий знаменатель путем геометрии. Я не один раз так делал (в уме, конечно, но вы можете и на бумаге попробовать, так нагляднее). Рисовал прямоугольники один на другом, причем каждый их них отражал какое-либо разрешение и соответственно они были все разные, НО какое-то пространство внутри у них всех было сохранено. Это и будет наименьшая потеря кадра.
А то, что вас учили и кто-то делал что-то до того, как вы пришли сюда... Мне-то это зачем знать?
как мы знаем на DVD дисках 16:9 записан 720х576 с чёрными полосками - капитан очевидность начинает учить
с французского торрента (фильм,который шёл по ТВ Франции) - капитан очевидность?
PAL 25fps битрейт немного разный - не вижу проблемы в этом
будет подходить по стандартам для телеканала - если вы знаете, какой канал и какие у него требования, то зачем мы весь этот бред здесь пишем? Подгоняли бы под их стандарт
[Профиль]  [ЛС] 

zhanna_kiev

Стаж: 7 лет 8 месяцев

Сообщений: 7


zhanna_kiev · 05-Фев-13 17:57 (спустя 50 мин.)

Спасибо! Извините,что так вышло. Думала,вместо ссылок на раздачу выложить подробные характеристики исходников. Я не капитан,а скорее юнга,т.к. только учусь,так что ещё раз простите. С точными науками у меня проблемы - я больше гуманитарий. Не буду флудить. Остановилась на размере 720х404. Ещё раз извините и спасибо за уделенное мне время.
[Профиль]  [ЛС] 

Сергей Пирог

Стаж: 9 лет 4 месяца

Сообщений: 913

Сергей Пирог · 07-Фев-13 15:26 (спустя 1 день 21 час, ред. 06-Мар-13 11:53)

Понятно. Ничего страшного
Хоче отметить, что таблица не полная. Иногда попадаются файлы, которые являются не совсем стандартными, а также файлы, где размеры по ширине или по высоте вообще какие-то недопустимые. По мере нахождения таких файлов расшаривается и таблица Вообще рекомендую всем завести нечто подобное, чтобы при рипах, мультифандомах и тп было легче вам самим же
Нарезка mkv, mp4 и др. в режиме прямопотокового копирования в VirtualDub
[Профиль]  [ЛС] 

menimadimseninikin

Стаж: 5 лет 10 месяцев

Сообщений: 1


menimadimseninikin · 10-Окт-13 14:52 (спустя 8 месяцев)

Большое спасибо Вам!
[Профиль]  [ЛС] 

octati

Стаж: 7 лет 8 месяцев

Сообщений: 25

octati · 05-Янв-15 08:57 (спустя 1 год 2 месяца)

Не открывается файл: Сергей Пирог - Титры в Sony Vegas 9 2010. Проверьте пожалуйста. И большое спасибо Вам!
[Профиль]  [ЛС] 

Monolithe-II

Лауреат музыкального конкурса

Стаж: 7 лет 8 месяцев

Сообщений: 12

Monolithe-II · 09-Июл-15 07:34 (спустя 6 месяцев)

сделайте, пожалуста, отдельно папку pdf и отдельно doc
[Профиль]  [ЛС] 
 
Ответить
Loading...
Error