Привет, Андрей! «Песня года»: как это было (Эфир от 30.12.2017) [2017, ТВ-шоу, HDTV 1080i] [Россия HD]

Страницы:  1

Ответить
Автор
Сообщение

nokia5150

Стаж: 8 лет 1 месяц

Сообщений: 662

nokia5150 · 30-Дек-17 23:00 (1 год 5 месяцев назад, ред. 30-Дек-17 23:16)

Привет, Андрей! «Песня года»: как это было
(Эфир от 30.12.2017)
Год выпуска: 2017
Страна: Россия
Жанр: ТВ-шоу
Продолжительность: 01:47:07
Перевод: Не требуется
Русские субтитры: нет
Выпущено: Россия, ФГУП «ВГТРК».
Описание: «Привет, Андрей!» – главное субботнее шоу страны! Знаменитые гости вместе с ведущим Андреем Малаховым обсуждают только хорошие новости, вспоминают самые приятные события прошедшей недели и делятся друг с другом исключительно оптимизмом.
В этом выпуске: Предновогодний выпуск главного субботнего шоу страны "Привет, Андрей!" будет посвящен другому шоу – ветерану нашего телевидения, традиционному праздничному подведению музыкальных итогов "отчетного периода" – концерту "Песня года". Сама эта передача выйдет в эфир 1 января в 14:20 с продолжением 2 января в 12:50. А в предвкушении феерии Андрей Малахов соберет за круглым столом постоянных ее участников – звезд отечественной эстрады.
Этот старейший песенный фестиваль был учрежден в Советском Союзе в 1971 году. В финал первого вошло 20 песен, отобранных по 30 тысячам писем и открыток. Первые пять лет "Песня года" проходила очень строго, официально. В зрительном зале сидели офицеры армии и флота, передовики производства и тому подобная публика. История фестиваля прерывалась лишь однажды – его отменили в 1992 году, но усилиями Ангелины Вовк, которая в паре с Евгением Меньшовым вела его 18 раз, праздник возродился. На 45 новогодних финальных концертах прозвучало свыше 2200 песен.
Сегодня "Песня года" – одно из самых ярких и роскошных наших телешоу, в котором ежегодно принимает участие более 80 популярных музыкантов. Многие звезды прошлых лет продолжают выходить на сцену фестиваля, несмотря на годы, и по-прежнему радуют поклонников великолепными голосами и исполнением. Концерт стал неотъемлемой частью новогоднего телевизионного "меню" россиян, которые не представляют себе праздника без этой передачи.
Все раздачи шоу
Источник: Собственный рип.
Доп. информация: Рип чистый. Без посторонних надписей. Выкладывается как есть.

Качество: HDTV 1080i
Контейнер: TS
Видео кодек: H.264
Аудио кодек: MP2
Видео: AVC, 1920x1080 (16:9) 25.000 fps ~11.6 Mb/s, 0.225 bit/pixel
Аудио: MPEG Audio 48000Hz stereo 2 channels 192 Кбит/сек
Скриншоты
Скринлист
Отчёт MediaInfo / BDInfo
Общее
Идентификатор : 1 (0x1)
Полное имя : G:\Раздачи\Программы, передачи, шоу, спектакли\Привет, Андрей!\Привет, Андрей! «Песня года» как это было (2017, HDTV 1080i, ТВ-шоу, Эфир от 30.12.2017) (by Nokia5150).ts
Формат : MPEG-TS
Размер файла : 8,79 Гбайт
Продолжительность : 1 ч. 41 м.
Режим общего битрейта : Переменный
Общий поток : 12,5 Мбит/сек
Видео
Идентификатор : 8000 (0x1F40)
Идентификатор меню : 20106 (0x4E8A)
Формат : AVC
Формат/Информация : Advanced Video Codec
Профиль формата : High@L4
Настройки формата : CABAC / 4 Ref Frames
Параметр CABAC формата : Да
Параметр RefFrames формата : 4 кадра
Идентификатор кодека : 27
Продолжительность : 1 ч. 41 м.
Битрейт : 11,6 Мбит/сек
Ширина : 1920 пикселей
Высота : 1080 пикселей
Соотношение сторон : 16:9
Частота кадров : 25,000 кадров/сек
Стандарт вещания : Component
Цветовое пространство : YUV
Субдискретизация насыщенности : 4:2:0
Битовая глубина : 8 бит
Тип развёртки : Чересстрочная
Метод сохранения типа развёртки : Раздельные поля
Порядок развёртки : Верхнее поле первое
Бит/(Пиксели*Кадры) : 0.225
Размер потока : 8,22 Гбайт (94%)
Цветовой диапазон : Limited
Основные цвета : BT.709
Характеристики трансфера : BT.709
Коэффициенты матрицы : BT.709
Аудио
Идентификатор : 8001 (0x1F41)
Идентификатор меню : 20106 (0x4E8A)
Формат : MPEG Audio
Версия формата : Version 1
Профиль формата : Layer 2
Идентификатор кодека : 3
Продолжительность : 1 ч. 41 м.
Вид битрейта : Постоянный
Битрейт : 192 Кбит/сек
Каналы : 2 канала
Частота : 48,0 КГц
Метод сжатия : С потерями
Размер потока : 139 Мбайт (2%)
Язык : Russian

Download
Для скачивания .torrent файлов необходима регистрация
Сайт не распространяет и не хранит электронные версии произведений, а лишь предоставляет доступ к создаваемому пользователями каталогу ссылок на торрент-файлы, которые содержат только списки хеш-сумм
[Профиль]  [ЛС] 

Sunbl1nd

Стаж: 9 лет 10 месяцев

Сообщений: 487


Sunbl1nd · 31-Дек-17 02:27 (спустя 3 часа)

Скажите, была ли запись телепередачи Орбиты времени с телеканала Время?
[Профиль]  [ЛС] 

nokia5150

Стаж: 8 лет 1 месяц

Сообщений: 662

nokia5150 · 31-Дек-17 02:48 (спустя 20 мин.)

Добрый. Нет не писал.
Записи делаю по просьбе. Орбиту никто не просил
Sunbl1nd писал(а):
74513799Скажите, была ли запись телепередачи Орбиты времени с телеканала Время?
[Профиль]  [ЛС] 

masaraksh86

Стаж: 10 лет

Сообщений: 1370


masaraksh86 · 03-Май-18 15:23 (спустя 4 месяца 3 дня)

Запишите выпуск 3.05.2018 когда его повторят. Там Катя Парфёнова сидела!
[Профиль]  [ЛС] 

nokia5150

Стаж: 8 лет 1 месяц

Сообщений: 662

nokia5150 · 03-Май-18 23:47 (спустя 8 часов)

а когда его повторят? я же написал, пишите за сутки до события (эфира).
я надеюсь, что вы понимаете, что сидеть и караулить когда будут повторы - не собираюсь
masaraksh86 писал(а):
75289986Запишите выпуск 3.05.2018 когда его повторят. Там Катя Парфёнова сидела!
[Профиль]  [ЛС] 

masaraksh86

Стаж: 10 лет

Сообщений: 1370


masaraksh86 · 04-Май-18 08:52 (спустя 9 часов)

nokia5150 писал(а):
75292541а когда его повторят? я же написал, пишите за сутки до события
вам в личку написать или куда?
[Профиль]  [ЛС] 

nokia5150

Стаж: 8 лет 1 месяц

Сообщений: 662

nokia5150 · 04-Май-18 10:49 (спустя 1 час 57 мин.)

в личку
[Профиль]  [ЛС] 
 
Ответить
Loading...
Error